#TITLE:Max-;
#SUBTITLE:(tampon);
#ARTIST:2MB vs. That time of the month again;
#TITLETRANSLIT:;
#SUBTITLETRANSLIT:;
#ARTISTTRANSLIT:;
#CREDIT:;
#BANNER:max- (tampon).PNG;
#BACKGROUND:max- (tampon)-bg.png;
#LYRICSPATH:;
#CDTITLE:;
#MUSIC:max- (tampon).mp3;
#OFFSET:-1.625;
#SAMPLESTART:5.625;
#SAMPLELENGTH:12.000;
#SELECTABLE:YES;
#BPMS:0.000=300.000;
#STOPS:;
#BGCHANGES:47.375=max- (tampon)-bg2.PNG=1.000=0=0=1,
99999=-nosongbg-=1.000=0=0=0 // don't automatically add -songbackground-
;
// cache tags:
#FIRSTBEAT:4.000;
#LASTBEAT:48.250;
#SONGFILENAME:Songs/Music V.I.P ^_^/max- (tampon)/max- (tampon).sm;
#HASMUSIC:1;
#HASBANNER:1;
#MUSICLENGTH:11.650;
// end cache tags

//---------------dance-single - ----------------
#NOTES:
     dance-single:
     :
     Hard:
     10:
     1.000,0.932,1.000,0.000,0.129,62.000,21.000,0.000,0.000,0.000:

0000
0000
0000
0000
,
1100
0011
0110
1100
,
0011
0110
1100
0011
,
0001
0010
0100
1000
0001
0010
0100
1000
,
1001
0000
1001
0000
0000
0110
0000
0011
,
0000
1100
0000
0110
0000
0011
0000
0110
,
0000
1100
0000
1010
0000
0101
0000
0110
,
0001
0010
0100
1000
0001
0010
0100
1000
,
1001
0000
0001
0010
0100
1000
0001
0010
,
0100
0000
1000
0010
0100
0001
0100
0010
,
1000
0000
1000
0100
0010
0001
0010
0100
,
1000
0000
0000
0000
0000
0000
0000
0000
0000
0000
0000
0000
0000
0000
0000
0000
0000
0000
0000
0000
0000
0000
0000
0000
0000
0000
0000
1000
0000
0000
0100
0000
,
1000
0100
0000
0000
0000
0000
0000
0000
0000
0000
0000
0000
0000
0000
0000
0000
;
